Enable / Włącz Javascript
 Widok 
 Kategorie 
 Nitro Torrent w sieci 
 Top 10 użytkowników 
 Asterix i Obelix W służbie Jej Królewskiej Mości - Asterix et Obelix Au Service de Sa Majeste 3D (2012) [BRRip x264 HOU AC3 Dual Audio] [Dubbing PL]

Asterix i Obelix W służbie Jej Królewskiej Mości - Asterix et Obelix Au Service de Sa Majeste 3D (2012) [BRRip x264 HOU AC3 Dual Audio] [Dubbing PL]
Kategoria: » » »
Dodane: 03/10/2017
Rozmiar: 3.97 GB
Uploader: tomysparow559 (10)
seed(ów): 0
leecher(ów): 0
Pobrane: 10
Komentarzy: 0
Pobierz Torrent Pobierz Torrent
Pobierz [Magnet] Pobierz [Magnet]

Obserwuj
Raportuj
[Oryginalny obrazek]
[Oryginalny obrazek]

THX - Leon345

Uwaga film w wersji 3D HO/U !!!!

Wersja mini HD.

The file containing - sample!!!
Plik zawiera - sample !!!

produkcja: Francja, Hiszpania, Węgry, Włochy
premiera: 2 listopada 2012 (Polska), 6 października 2012 (świat)
reżyseria: Laurent Tirard
scenariusz: Laurent Tirard, Grégoire Vigneron
gatunek: Familijny, Komedia, Przygodowy
czas: 01:50:10

Opis:

Rok 50 p.n.e. - głodny podbojów Juliusz Cezar rozpoczyna BITWĘ O ANGLIĘ, wykorzystując
perfidnie narodową skłonność Brytów do tradycyjnej przerwy na wrzątek. Królowa Brytów
Kordelia wysyła z tajną misją specjalną swego agenta - sir Mentafixa, który ma odnaleźć
galijską "willidż" z LICENCJĄ NA OPIERANIE? się siłom Rzymu. Dzielni Galowie Asterix
i Obelix podejmują wyzwanie i wyruszają na odsiecz Jej Królewskiej Mości. Mają ze sobą
tajną broń przeciw Cezarowi - beczkę magicznej mikstury Panoramiksa oraz niesfornego
młodziana imieniem Skandalix, na każdym krok ściągającego na nich kłopoty. Spotkanie Galów,
Brytów i Rzymian prowadzi do serii arcyzabawnych nieporozumień, w które zaplątani są jeszcze
m.in. najemnicy z Normandii, piraci, złodzieje, dżentelmeni, futboliści, angielskie damy,
kaci i nielegalni imigranci.

[Oryginalny obrazek]
[Oryginalny obrazek]
[Oryginalny obrazek]
[Oryginalny obrazek]
[Oryginalny obrazek]
[Oryginalny obrazek]
[Oryginalny obrazek]
[Oryginalny obrazek]

Obsada:

Gerard Depardieu...Obélix
Edouard Baer...Astérix
Guillaume Gallienne...Jolitorax
Vincent Lacoste...Goudurix
Valérie Lemercier...Panna Macintosh

Dane techniczne:

Format : Matroska
Format version : Version 4 / Version 2
File size : 3.93 GiB
Duration : 1h 50mn
Overall bit rate : 5 105 Kbps
Movie name : Astérix et Obélix Au service de Sa Majesté (2012) 3D - alE13
Encoded date : UTC 2013-03-14 18:37:57
Writing application : mkvmerge v6.1.0
Writing library : libebml v1.3.0 + libmatroska v1.4.0

Video
ID : 1
Format : AVC
Format/Info : Advanced Video Codec
Format profile : Main@L4.0
Format settings, CABAC : Yes
Format settings, ReFrames : 2 frames
Codec ID : V_MPEG4/ISO/AVC
Duration : 1h 50mn
Bit rate : 4 000 Kbps
Width : 1 920 pixels
Height : 1 080 pixels
Display aspect ratio : 16:9
Frame rate mode : Constant
Frame rate : 24.000 fps
Color space : YUV
Chroma subsampling : 4:2:0
Bit depth : 8 bits
Scan type : Progressive
Bits/(Pixel*Frame) : 0.080
Stream size : 3.01 GiB (77%)
Writing library : x264 core 112 r1834 a51816a

Audio #1
ID : 2
Format : AC-3
Format/Info : Audio Coding 3
Mode extension : CM (complete main)
Format settings, Endianness : Big
Codec ID : A_AC3
Duration : 1h 50mn
Bit rate mode : Constant
Bit rate : 640 Kbps
Channel(s) : 6 channels
Channel positions : Front: L C R, Side: L R, LFE
Sampling rate : 48.0 KHz
Bit depth : 16 bits
Compression mode : Lossy
Stream size : 504 MiB (13%)
Title : Astérix et Obélix Au service de Sa Majesté (2012) 3D - alE13
Language : French

Audio #2
ID : 3
Format : AC-3
Format/Info : Audio Coding 3
Mode extension : CM (complete main)
Format settings, Endianness : Big
Codec ID : A_AC3
Duration : 1h 50mn
Bit rate mode : Constant
Bit rate : 448 Kbps
Channel(s) : 6 channels
Channel positions : Front: L C R, Side: L R, LFE
Sampling rate : 48.0 KHz
Bit depth : 16 bits
Compression mode : Lossy
Stream size : 353 MiB (9%)
Title : Astérix et Obélix Au service de Sa Majesté (2012) 3D - alE13
Language : Polish

Text
ID : 4
Format : VobSub
Muxing mode : zlib
Codec ID : S_VOBSUB
Codec ID/Info : The same subtitle format used on DVDs
Language : English


Menu
00:00:00.000 : en:(01)00:00:00:000
00:06:00.777 : en:(02)00:06:00:777
00:15:09.199 : en:(03)00:15:09:199
00:22:58.168 : en:(04)00:22:58:168
00:29:16.588 : en:(05)00:29:16:588
00:36:26.559 : en:(06)00:36:26:559
00:42:32.299 : en:(07)00:42:32:299
00:49:52.823 : en:(08)00:49:52:823
00:54:20.924 : en:(09)00:54:20:924
01:02:13.938 : en:(10)01:02:13:938
01:09:40.634 : en:(11)01:09:40:634
01:18:59.317 : en:(12)01:18:59:317
01:24:40.784 : en:(13)01:24:40:784
01:29:14.223 : en:(14)01:29:14:223
01:37:28.843 : en:(15)01:37:28:843
01:42:58.755 : en:(16)01:42:58:755
01:50:06.516 : en:(17)01:50:06:516



Dostępne napisy
Brak napisów
Szczegóły torrenta
Tracker http://fr33dom.h33t.com:3310/announce
Multitracker [ Pokaż ]
Kategoria: » » » [Zgłoś błąd]
Dodane 03-10-2017
Podziękowali:
0 użytkowników 
Podziękuj!
Pokaż / Ukryj pliki:
Nazwa pliku Rozmiar
sub/Asterix.and.Obelix.God.Save.Britannia.480p.BluRay.x264-mSD.sub 9.31 MB
sub/Asterix.and.Obelix.God.Save.Britannia.480p.BluRay.x264-mSD.xml 199.62 KB
sub/Asterix.and.Obelix.God.Save.Britannia.480p.BluRay.x264-mSD.srt 91.84 KB
sub/Asterix.and.Obelix.God.Save.Britannia.480p.BluRay.x264-mSD.idx 60.28 KB
Astérix et Obélix Au service de Sa Majesté (2012) 3D - alE13.mkv 3.93 GB
sample.mkv 27.93 MB
alE132013-03-14-19h31m27s105.jpg 199.72 KB
alE132013-03-14-19h32m02s196.jpg 175.59 KB
1.jpg 174.73 KB
alE132013-03-14-19h33m24s248.jpg 167.76 KB
2.jpg 144.75 KB
alE132013-03-14-19h33m06s76.jpg 144.11 KB
okladka.jpg 142.07 KB
alE132013-03-14-19h31m37s212.jpg 114.73 KB
txt.jpg 104.35 KB
Torrent downloaded from alE13 torrents at BTScene.org.txt 0.12 KB
16 plików
Brak komentarzy...
Zoë Kravitz | Sweet Guy: chapter 73 | Shokugeki no Soma 235