Enable / Włącz Javascript
 Widok 
 Kategorie 
 Nitro Torrent w sieci 
 Top 10 użytkowników 
 Asterix i Obelix: W służbie Jej Królewskiej Mości 3D (OU) - Astérix et Obélix: Au Service de Sa Majesté *2012* [1080p BluRay Half Over-Under AC3 x264-SONDA] [Dubbing PL]

Asterix i Obelix: W służbie Jej Królewskiej Mości 3D (OU) - Astérix et Obélix: Au Service de Sa Majesté *2012* [1080p BluRay Half Over-Under AC3 x264-SONDA] [Dubbing PL]
Kategoria: » » »
Dodane: 03/10/2017
Rozmiar: 10.36 GB
Uploader: tomysparow559 (10)
seed(ów): 0
leecher(ów): 0
Pobrane: 2
Komentarzy: 0
Pobierz Torrent Pobierz Torrent
Pobierz [Magnet] Pobierz [Magnet]

Obserwuj
Raportuj
Film w wersji 3D Over-Under
Do odtworzenia filmu WYMAGANY odpowiedni sprzęt (TV 3D)

gatunek: Familijny,Komedia,Przygodowy
produkcja: Francja,Hiszpania,Węgry,Włochy
premiera: 2 listopada 2012 (Polska) 6 października 2012 (świat)
reżyseria: Laurent Tirard
scenariusz: Laurent Tirard,Grégoire Vigneron

Rok 50 p.n.e. - głodny podbojów Juliusz Cezar rozpoczyna BITWĘ O ANGLIĘ, wykorzystując perfidnie narodową skłonność Brytów do tradycyjnej przerwy na wrzątek. Królowa Brytów Kordelia wysyła z tajną misją specjalną swego agenta - sir Mentafixa, który ma odnaleźć galijską "willidż" z LICENCJĄ NA OPIERANIE… się siłom Rzymu. Dzielni Galowie Asterix i Obelix podejmują wyzwanie i wyruszają na odsiecz Jej Królewskiej Mości. Mają ze sobą tajną broń przeciw Cezarowi - beczkę magicznej mikstury Panoramiksa oraz niesfornego młodziana imieniem Skandalix, na każdym krok ściągającego na nich kłopoty. Spotkanie Galów, Brytów i Rzymian prowadzi do serii arcyzabawnych nieporozumień, w które zaplątani są jeszcze m.in. najemnicy z Normandii, piraci, złodzieje, dżentelmeni, futboliści, angielskie damy, kaci i nielegalni imigranci.

========================================
BluRay 3D Rip (OU) - SONDA
========================================


Format : Matroska
Format version : Version 4 / Version 2
File size : 10.4 GiB
Duration : 1h 50mn
Overall bit rate : 13.5 Mbps
Movie name : Asterix et Obelix: Au service de Sa Majestek 3D (2012) Bluray 3D Rip (OU) - Sonda
Encoded date : UTC 2013-03-14 14:14:15
Writing application : mkvmerge v6.1.0 ('Old Devil') built on Mar 2 2013 14:32:37
Writing library : libebml v1.3.0 + libmatroska v1.4.0

Video #1
ID : 1
Format : AVC
Format/Info : Advanced Video Codec
Format profile : High@L4.1
Format settings, CABAC : Yes
Format settings, ReFrames : 4 frames
Codec ID : V_MPEG4/ISO/AVC
Duration : 1h 50mn
Bit rate : 12.8 Mbps
Width : 1 920 pixels
Height : 1 080 pixels
Display aspect ratio : 16:9
Frame rate mode : Constant
Frame rate : 23.976 fps
Color space : YUV
Chroma subsampling : 4:2:0
Bit depth : 8 bits
Scan type : Progressive
Bits/(Pixel*Frame) : 0.257
Stream size : 9.81 GiB (95%)
Title : BluRay 3D Rip by Sonda
Writing library : x264 core 116 r2074 2641b9e
Encoding settings : cabac=1 / ref=4 / deblock=1:-3:-3
Default : Yes
Forced : No

Audio #2
ID : 2
Format : AC-3
Format/Info : Audio Coding 3
Mode extension : CM (complete main)
Format settings, Endianness : Big
Codec ID : A_AC3
Duration : 1h 50mn
Bit rate mode : Constant
Bit rate : 448 Kbps
Channel(s) : 6 channels
Channel positions : Front: L C R, Side: L R, LFE
Sampling rate : 48.0 KHz
Bit depth : 16 bits
Compression mode : Lossy
Delay relative to video : 24ms
Stream size : 353 MiB (3%)
Title : AC3 5.1 Dubbing PL
Language : Polish
Default : Yes
Forced : No

Dostępne napisy
Brak napisów
Szczegóły torrenta
Tracker http://fr33dom.h33t.com:3310/announce
Multitracker [ Pokaż ]
Kategoria: » » » [Zgłoś błąd]
Dodane 03-10-2017
Podziękowali:
0 użytkowników 
Podziękuj!
Pokaż / Ukryj pliki:
Nazwa pliku Rozmiar
Asterix et Obelix Au service de Sa Majeste 3D.mkv 10.36 GB
asterix.jpg 118.87 KB
2 plików
Brak komentarzy...
Quadro moderno Astratto Kandinsky Acqu.1 - Arte Arredo Stampa su tela Intelaiato | Watch Movie | nachtlampje