Enable / Włącz Javascript
 Widok 
 Kategorie 
 Nitro Torrent w sieci 
 Top 10 użytkowników 
 Barbie: Gwiezdna przygoda Barbie: Star Light Adventure *2016* [DVDRip.XviD-EVO] [ENG]

Barbie: Gwiezdna przygoda Barbie: Star Light Adventure *2016* [DVDRip.XviD-EVO] [ENG]
Kategoria: » » »
Dodane: 03/10/2017
Rozmiar: 930.87 MB
Uploader: iridescence.info❱ Wędrowiec
seed(ów): 0
leecher(ów): 0
Pobrane: 18
Komentarzy: 0
Pobierz Torrent Pobierz Torrent
Pobierz [Magnet] Pobierz [Magnet]

Obserwuj
Raportuj
Tytuł: Barbie: Star Light Adventure / Barbie: Gwiezdna przygoda
Ocena: IMDB - 5.3/10 (23)
Produkcja: USA
Gatunek: Animacja
Czas trwania: 79 min.
Premiera: 12.08.2016 - Polska, 12.08.2016 - Świat
Reżyseria: Andrew Tan
Scenariusz: Kacey Arnold

Aktorzy:
Erica Lindbeck,
Robbie Daymond,
Kimberly Woods,
Sarah Anne Williams

OPIS:
Kosmiczna księżniczka latająca w kosmosie na magicznej deskorolce musi uratować gasnącą galaktykę. (filmweb.pl)

Video
ID                                       : 0
Format                                   : MPEG-4 Visual
Format profile                           : Simple@L3
Format settings, BVOP                    : No
Format settings, QPel                    : No
Format settings, GMC                     : No warppoints
Format settings, Matrix                  : Default (H.263)
Codec ID                                 : XVID
Codec ID/Hint                            : XviD
Duration                                 : 1h 19mn
Bit rate                                 : 1 497 Kbps
Width                                    : 720 pixels
Height                                   : 400 pixels
Display aspect ratio                     : 16:9
Frame rate                               : 23.976 (24000/1001) fps
Color space                              : YUV
Chroma subsampling                       : 4:2:0
Bit depth                                : 8 bits
Scan type                                : Progressive
Compression mode                         : Lossy
Bits/(Pixel*Frame)                       : 0.217
Stream size                              : 851 MiB (91%)
Writing library                          : XviD 1.1.2 (UTC 2006-11-01)

Audio
ID                                       : 1
Format                                   : MPEG Audio
Format version                           : Version 1
Format profile                           : Layer 3
Mode                                     : Joint stereo
Codec ID                                 : 55
Codec ID/Hint                            : MP3
Duration                                 : 1h 19mn
Source duration                          : 1h 19mn
Bit rate mode                            : Constant
Bit rate                                 : 128 Kbps
Channel(s)                               : 2 channels
Sampling rate                            : 48.0 KHz
Compression mode                         : Lossy
Stream size                              : 72.7 MiB (8%)
Alignment                                : Split accross interleaves
Interleave, duration                     : 24 ms (0.58 video frame)
Writing library                          : LAME3.98

Torrent downloaded from http://rarbg.to
Dostępne napisy
Brak napisów
Szczegóły torrenta
Tracker http://tracker.trackerfix.com:80/announce
Multitracker [ Pokaż ]
Kategoria: » » » [Zgłoś błąd]
Dodane 03-10-2017
Podziękowali:
1 użytkownik 
[ Pokaż ]
Podziękuj!
Pokaż / Ukryj pliki:
Nazwa pliku Rozmiar
Barbie.Starlight.Adnventure.2016.DVDRip.XviD-EVO.avi 930.86 MB
Barbie.Starlight.Adnventure.2016.DVDRip.XviD-EVO.nfo 3.06 KB
RARBG.com.txt 0.03 KB
3 plików
Brak komentarzy...
Satyameva Jayate 2018 Hindi Movie HDRip 720p | download Rocket League PC torrent | Công nghiệp - xây dựng