Enable / Włącz Javascript
 Widok 
 Kategorie 
 Nitro Torrent w sieci 
 Top 10 użytkowników 
 Grinch 2018 [MD][HDCAM.x264-FOX] [R@KU][Dubbing Kino]

Grinch 2018 [MD][HDCAM.x264-FOX] [R@KU][Dubbing Kino] Dla iridescence.info
Kategoria: » » »
Dodane: 06/01/2019
Rozmiar: 308.55 MB
Uploader: R@KU (7)
seed(ów): 14
leecher(ów): 2
Pobrane: 351
Komentarzy: 0
Pobierz Torrent Pobierz Torrent
Pobierz [Magnet] Pobierz [Magnet]

Obserwuj
Raportuj
Info
reżyseria: Yarrow Cheney,Scott Mosier
scenariusz: Michael LeSieur,Tommy Swerdlow
gatunek: Animacja
produkcja: Chiny,USA
premiera: 30 listopada 2018 (Polska) 6 listopada 2018 (świat)
boxoffice: $469 399 485 top #221
nagrody: 2 nominacje
Opis
Grinch znów powraca, by zepsuć wszystkim ten szczególny świąteczny czas. Mieszkańcy Ktosiowa z niecierpliwością oczekują Białego Bożego Narodzenia, najpiękniejszego czasu w roku. I tylko on, zielony stwór Grinch, nie znosi świąt i zrobi wszystko, by je zepsuć.
Obsada
Benedict Cumberbatch
Cameron Seely
Rashida Jones
Dane Techniczne

Format                                   : MPEG-4
Format profile                           : Base Media
Codec ID                                 : isom (isom/iso2/avc1/mp41)
File size                                : 309 MiB
Duration                                 : 1 h 18 min
Overall bit rate                         : 553 kb/s
Writing application                      : Lavf57.83.100

Video
ID                                       : 1
Format                                   : AVC
Format/Info                              : Advanced Video Codec
Format profile                           : High@L3.1
Format settings                          : CABAC / 5 Ref Frames
Format settings, CABAC                   : Yes
Format settings, RefFrames               : 5 frames
Codec ID                                 : avc1
Codec ID/Info                            : Advanced Video Coding
Duration                                 : 1 h 18 min
Bit rate                                 : 448 kb/s
Width                                    : 720 pixels
Height                                   : 304 pixels
Display aspect ratio                     : 2.35:1
Frame rate mode                          : Constant
Frame rate                               : 29.970 (29970/1000) FPS
Color space                              : YUV
Chroma subsampling                       : 4:2:0
Bit depth                                : 8 bits
Scan type                                : Progressive
Bits/(Pixel*Frame)                       : 0.068
Stream size                              : 250 MiB (81%)
Writing library                          : x264 core 148 r2643 5c65704


Audio
ID                                       : 2
Format                                   : AAC LC
Format/Info                              : Advanced Audio Codec Low Complexity
Codec ID                                 : mp4a-40-2
Duration                                 : 1 h 18 min
Bit rate mode                            : Constant
Bit rate                                 : 96.0 kb/s
Channel(s)                               : 2 channels
Channel layout                           : L R
Sampling rate                            : 48.0 kHz
Frame rate                               : 46.875 FPS (1024 SPF)
Compression mode                         : Lossy
Stream size                              : 53.6 MiB (17%)
Language                                 : unk
Default                                  : Yes
Alternate group                          : 1


Dostępne napisy
Brak napisów
Szczegóły torrenta
Tracker udp://tracker.opentrackr.org:1337/announce
Multitracker [ Pokaż ]
Kategoria: » » » [Zgłoś błąd]
Dodane 06-01-2019
Podziękowali:
2 użytkowników 
[ Pokaż ]
Podziękuj!
Pokaż / Ukryj pliki:
Nazwa pliku Rozmiar
Downloaded from iridescence.info.txt.txt 0.00 KB
Grinch.2018.MD.PLDUB.HDCAM.x264-FOX.mkv.mp4 308.55 MB
2 plików
Brak komentarzy...
Kpop Star Hunt Season 1 | 夢丘ありす | Rami Malek