Enable / Włącz Javascript
 Widok 
 Kategorie 
 Nitro Torrent w sieci 
 Top 10 użytkowników 
 Hugo i Jego Wynalazek 3D (OU) - Hugo (2011) [mini-HD 1080p Over-Under AC3 x264-LEON 345] [Lektor PL]

Hugo i Jego Wynalazek 3D (OU) - Hugo (2011) [mini-HD 1080p Over-Under AC3 x264-LEON 345] [Lektor PL]
Kategoria: » » »
Dodane: 03/10/2017
Rozmiar: 3.70 GB
Uploader: tomysparow559 (10)
seed(ów): 0
leecher(ów): 0
Pobrane: 10
Komentarzy: 0
Pobierz Torrent Pobierz Torrent
Pobierz [Magnet] Pobierz [Magnet]

Obserwuj
Raportuj
Film w wersji 3D Over-Under.
Do odtworzenia filmu WYMAGANY odpowiedni sprzęt (TV 3D).

Kopia mini-HD 1080p = tylko 3,69 GB

gatunek: Familijny, Przygodowy
premiera: 10 lutego 2012 (Polska) 10 października 2011 (Świat)
produkcja: USA

Film zrealizowany na podstawie książki Briana Selznicka. Bohaterem jest Hugo - sierota mieszkający w korytarzach ukrytych w murach paryskiego dworca, gdzie jego życie zależy od zachowania anonimowości. Kiedy jednak jego losy zazębiają się z życiem pewnej dziewczynki (Izabelle) kochającej książki oraz starca prowadzącego na dworcu sklepik z zabawkami, jego podziemne życie zostanie zagrożone. Tajemniczy rysunek, notes, skradziony klucz, mechaniczny człowiek i ukryta wiadomość od nieżyjącego ojca Hugona to elementy tworzące szkielet tej pięknej historii.

Kopie 3D SBS(OU) mini-HD, to kopie specjalistyczne o dużej rozdzielczości (1920 x 1080 ), które mimo niewielkiego ciężaru (w MB) zachowują wysoką jakość.

Szczególnie polecam tym, którzy chcą zaoszczędzić czas i przestrzeń na dysku.

Taką kopię można także bez problemu nagrać na zwykłą płytę DVD lub przenieś na zewnętrzną pamięć.

Ważne jest również to, że tą wersję mogą obejrzeć osoby, których sprzęt ma ograniczenia w postaci obsługi tylko formatu FAT, jak wiadomo taki format obsłuży filmy, które mają maksymalnie 4GB, więc w tym przypadku ta wersja jest też dla nich.

General
Complete name : E:FilmyFilmy 3DSBS 3DHugo 3D(Leon 345)HUGO_3D_BD_BLUEBIRD(Leon 345).mkv
Format : Matroska
File size : 3.69 GiB
Duration : 2h 6mn
Overall bit rate : 4 187 Kbps
Movie name : HUGO_3D_BD_BLUEBIRD.Title2.Bluray3DRip
Encoded date : UTC 2012-04-28 14:47:05
Writing application : DVDFab
Writing library : libebml v0.7.8 + libmatroska v0.8.1

Video
ID : 1
Format : AVC
Format/Info : Advanced Video Codec
Format profile : High@L5.1
Format settings, CABAC : Yes
Format settings, ReFrames : 2 frames
Muxing mode : Container profile=Unknown@5.1
Codec ID : V_MPEG4/ISO/AVC
Duration : 2h 6mn
Bit rate : 3 655 Kbps
Width : 1 920 pixels
Height : 1 080 pixels
Display aspect ratio : 16:9
Frame rate : 23.976 fps
Resolution : 8 bits
Colorimetry : 4:2:0
Scan type : Progressive
Bits/(Pixel*Frame) : 0.074
Stream size : 3.22 GiB (87%)
Writing library : x264 core
Color primaries : BT.709-5, BT.1361, IEC 61966-2-4, SMPTE RP177
Transfer characteristics : BT.709-5, BT.1361
Matrix coefficients : BT.709-5, BT.1361, IEC 61966-2-4 709, SMPTE RP177

Audio
ID : 2
Format : AC-3
Format/Info : Audio Coding 3
Codec ID : A_AC3
Duration : 2h 6mn
Bit rate mode : Constant
Bit rate : 448 Kbps
Channel(s) : 6 channels
Channel positions : Front: L C R, Side: L R, LFE
Sampling rate : 48.0 KHz
Stream size : 405 MiB (11%)
Language : Polish

Menu
00:00:00.000 : en:(01)00:00:00:000
00:09:35.533 : en:(02)00:09:35:533
00:17:20.664 : en:(03)00:17:20:664
00:23:32.911 : en:(04)00:23:32:911
00:30:34.541 : en:(05)00:30:34:541
00:38:26.262 : en:(06)00:38:26:262
00:47:36.270 : en:(07)00:47:36:270
00:55:37.542 : en:(08)00:55:37:542
01:03:43.694 : en:(09)01:03:43:694
01:12:46.862 : en:(10)01:12:46:862
01:19:59.169 : en:(11)01:19:59:169
01:27:10.099 : en:(12)01:27:10:099
01:33:03.494 : en:(13)01:33:03:494
01:42:41.280 : en:(14)01:42:41:280
01:53:47.779 : en:(15)01:53:47:779
01:59:58.441 : en:(16)01:59:58:441
02:06:20.781 : en:(17)02:06:20:781

Leon 345
Dostępne napisy
Brak napisów
Szczegóły torrenta
Tracker http://i.bandito.org/announce
Multitracker [ Pokaż ]
Kategoria: » » » [Zgłoś błąd]
Dodane 03-10-2017
Podziękowali:
0 użytkowników 
Podziękuj!
Pokaż / Ukryj pliki:
Nazwa pliku Rozmiar
HUGO_3D_BD_BLUEBIRD(Leon 345).mkv 3.69 GB
35630_front.jpg 122.39 KB
Poradnik Leona do filmów 3D.txt 18.35 KB
info.url 0.11 KB
4 plików
Brak komentarzy...
Wyścig z zabójczą grypą (2009) | Voir tout | Bingbing Fan