Enable / Włącz Javascript
 Widok 
 Kategorie 
 Nitro Torrent w sieci 
 Top 10 użytkowników 
 Mój przyjaciel delfin 3D OU Dolphin Tale *2011*[BDRip 1080p Over-Under Dual audio AC3 x264-LEON 345][Lektor i napisy PL]

Mój przyjaciel delfin 3D OU Dolphin Tale *2011*[BDRip 1080p Over-Under Dual audio AC3 x264-LEON 345][Lektor i napisy PL]
Kategoria: » » »
Dodane: 03/10/2017
Rozmiar: 10.46 GB
Uploader: tomysparow559 (10)
seed(ów): 0
leecher(ów): 0
Pobrane: 6
Komentarzy: 0
Pobierz Torrent Pobierz Torrent
Pobierz [Magnet] Pobierz [Magnet]

Obserwuj
Raportuj
Film w wersji 3D Over-Under.
Do odtworzenia filmu WYMAGANY odpowiedni sprzęt (TV 3D).
=======================================

PRODUKCJA: USA
GATUNEK: Familijny,Dramat
CZAS TRWANIA: 113 minut
DATA PREMIERY: 16 września 2011 (Świat)
REŻYSERIA: Charles Martin Smith
SCENARIUSZ: Charles Martin Smith, Karen Janszen

Film ?Dolphin Tale? jest opartą na faktach rodzinną opowieścią o Winter, młodej samicy delfina, która straciła płetwę w pułapce na kraby, oraz Sawyerze, introwertycznym jedenastolatku, który zaprzyjaźnia się z Winter. Sawyer spotyka uratowanego delfina w Clearwater Marine Aquarium, morskim centrum rehabilitacji. Chłopiec namawia przyjaciół i rodzinę, by ratować Winter. Przekonuje nowatorskiego lekarza do stworzenia sztucznej płetwy, dzięki której delfin będzie znowu pływać. Winter zagrała w filmie samą siebie.

General

Format : Matroska
File size : 10.5 GiB
Duration : 1h 52mn
Overall bit rate : 13.3 Mbps
Movie name : Dolphin Tale 3D
Encoded date : UTC 2012-06-07 10:12:17
Writing application : mkvmerge v5.2.1 ('A Far Off Place') built on Jan 2 2012 23:21:10
Writing library : libebml v1.2.3 + libmatroska v1.3.0

Video
ID : 1
Format : AVC
Format/Info : Advanced Video Codec
Format profile : High@L4.1
Format settings, CABAC : Yes
Format settings, ReFrames : 4 frames
Muxing mode : Container profile=Unknown@4.1
Codec ID : V_MPEG4/ISO/AVC
Duration : 1h 52mn
Bit rate : 12.0 Mbps
Width : 1 920 pixels
Height : 1 080 pixels
Display aspect ratio : 16:9
Frame rate : 23.976 fps
Original frame rate : 25.000 fps
Resolution : 8 bits
Colorimetry : 4:2:0
Scan type : Progressive
Bits/(Pixel*Frame) : 0.241
Stream size : 9.44 GiB (90%)
Writing library : x264 core 119 r2106 07efeb4


Audio #1
ID : 2
Format : AC-3
Format/Info : Audio Coding 3
Codec ID : A_AC3
Duration : 1h 52mn
Bit rate mode : Constant
Bit rate : 384 Kbps
Channel(s) : 6 channels
Channel positions : Front: L C R, Side: L R, LFE
Sampling rate : 48.0 KHz
Stream size : 309 MiB (3%)
Language : Polish

Audio #2
ID : 3
Format : AC-3
Format/Info : Audio Coding 3
Codec ID : A_AC3
Duration : 1h 52mn
Bit rate mode : Constant
Bit rate : 640 Kbps
Channel(s) : 6 channels
Channel positions : Front: L C R, Side: L R, LFE
Sampling rate : 48.0 KHz
Stream size : 516 MiB (5%)
Language : English

Menu
00:00:00.000 : :01
00:09:14.304 : :02
00:19:32.797 : :03
00:27:58.677 : :04
00:39:20.692 : :05
00:47:27.094 : :06
00:58:13.949 : :07
01:07:11.444 : :08
01:19:00.945 : :09
01:29:13.640 : :10
01:39:39.140 : :11
01:45:18.938 : :12

Leon 345
Dostępne napisy
Brak napisów
Szczegóły torrenta
Tracker http://i.bandito.org/announce
Multitracker [ Pokaż ]
Kategoria: » » » [Zgłoś błąd]
Dodane 03-10-2017
Podziękowali:
0 użytkowników 
Podziękuj!
Pokaż / Ukryj pliki:
Nazwa pliku Rozmiar
DolphinTale 3D(Leon 345).mkv 10.46 GB
33004_front 2.jpg 143.78 KB
DolphinTale 3D(Leon 345).srt 72.71 KB
DolphinTale 3D(Leon 345).txt 41.59 KB
Poradnik Leona do filmów 3D.txt 19.12 KB
Open.txt 0.14 KB
6 plików
Brak komentarzy...
Tập Movie TO: Elliptical Orbit & Symbiotic Planet | Baixar XAPK | Avengers: Endgame