Enable / Włącz Javascript
 Widok 
 Kategorie 
 Nitro Torrent w sieci 
 Top 10 użytkowników 
 Robinson Crusoe 3D *2016* [mini-HD 1080p 3D Half Over-Under DualAudio AC3 BluRay x264] [Dubbing PL]

Robinson Crusoe 3D *2016* [mini-HD 1080p 3D Half Over-Under DualAudio AC3 BluRay x264] [Dubbing PL]
Kategoria: » » »
Dodane: 03/10/2017
Rozmiar: 3.99 GB
Uploader: tomysparow559 (10)
seed(ów): 0
leecher(ów): 0
Pobrane: 10
Komentarzy: 0
Pobierz Torrent Pobierz Torrent
Pobierz [Magnet] Pobierz [Magnet]

Obserwuj
Raportuj
gatunek: Animacja,Przygodowy
produkcja: Belgia,Francja
premiera: 4 marca 2016 (Polska) 4 lutego 2016 (świat)
reżyseria: Ben Stassen,Vincent Kesteloot



Wesoła papuga jest duszą zwierzęcego towarzystwa zamieszkującego bezludną wyspę. Wśród najbliższych przyjaciół ptaka-gaduły są: kameleon, tapirzyca, wiekowa koza, dwa pangoliny, jeżozwierz i samica zimorodka, w której nasz bohater skrycie się podko*censored*e. Ale papuga ma już dość kąpieli w oceanie i suszenia piór na złocistym piasku egzotycznej plaży. Pragnie zobaczyć świat! Pewnego dnia spotyka dziwne zwierzę, które chodzi na dwóch tylnych łapach i potrafi zrzucać skórę (czyli, tłumacząc na ludzki: zdejmować ubranie). To Robinson Crusoe, który po katastrofie statku został wyrzucony przez fale na brzeg wyspy. Zwierzaki, z początku nieufne wobec cudacznego przybysza, z czasem zaprzyjaźniają się z nim. Wkrótce Robinson i jego nowi przyjaciele połączą siły, by stawić czoła niebezpieczeństwu, które zagrozi mieszkańcom wyspy.



Kamil Kula ... Robinson Crusoe (polski dubbing)
Paweł Ciołkosz ... Wtorek / Mak (polski dubbing)
Marta Żmuda Trzebiatowska ... Kiki (polski dubbing)
Anna Apostolakis-Gluzińska ... Rózia (polski dubbing)
Magdalena Boczarska ... May (polski dubbing)



General
Format : Matroska
Format version : Version 2
File size : 3.99 GiB
Duration : 1h 30mn
Overall bit rate : 6 308 Kbps
Encoded date : UTC 2016-08-28 12:46:25
Writing application : mkvmerge v5.7.0 ('The Whirlwind') built on Jul 8 2012 20:08:51
Writing library : libebml v1.2.3 + libmatroska v1.3.0

Video
ID : 1
Format : AVC
Format/Info : Advanced Video Codec
Format profile : High@L4.1
Format settings, CABAC : Yes
Format settings, ReFrames : 4 frames
Codec ID : V_MPEG4/ISO/AVC
Duration : 1h 30mn
Bit rate : 5 200 Kbps
Width : 1 920 pixels
Height : 1 080 pixels
Display aspect ratio : 16:9 (2.39:1)
Frame rate mode : Constant
Frame rate : 23.976 fps
Color space : YUV
Chroma subsampling : 4:2:0
Bit depth : 8 bits
Scan type : Progressive
Bits/(Pixel*Frame) : 0.105
Stream size : 3.22 GiB (81%)
Title : Rip by Sonda
Writing library : x264 core 148 r2638 7599210
Encoding settings : cabac=1 / ref=4 / deblock=1:-1:-1 / rc=2pass
Default : Yes
Forced : No

Audio #1
ID : 2
Format : AC-3
Format/Info : Audio Coding 3
Mode extension : CM (complete main)
Format settings, Endianness : Big
Codec ID : A_AC3
Duration : 1h 30mn
Bit rate mode : Constant
Bit rate : 448 Kbps
Channel count : 6 channels
Channel positions : Front: L C R, Side: L R, LFE
Sampling rate : 48.0 KHz
Bit depth : 16 bits
Compression mode : Lossy
Stream size : 290 MiB (7%)
Title : AC3 5.1 Dubbing PL
Language : Polish
Default : Yes
Forced : Yes

Audio #2
ID : 3
Format : AC-3
Format/Info : Audio Coding 3
Mode extension : CM (complete main)
Format settings, Endianness : Big
Codec ID : A_AC3
Duration : 1h 30mn
Bit rate mode : Constant
Bit rate : 640 Kbps
Channel count : 6 channels
Channel positions : Front: L C R, Side: L R, LFE
Sampling rate : 48.0 KHz
Bit depth : 16 bits
Compression mode : Lossy
Stream size : 414 MiB (10%)
Title : AC3 5.1 GER
Language : German
Default : No
Forced : No

Text #1
ID : 4
Format : UTF-8
Codec ID : S_TEXT/UTF8
Codec ID/Info : UTF-8 Plain Text
Title : napisy GER 2D
Language : German
Default : No
Forced : No

Text #2
ID : 5
Format : PGS
Muxing mode : zlib
Codec ID : S_HDMV/PGS
Codec ID/Info : The same subtitle format used on BDs/HD-DVDs
Title : napisy GER 3D
Language : German
Default : No
Forced : No

Dostępne napisy
Brak napisów
Szczegóły torrenta
Tracker http://pow7.com:80/announce
Multitracker [ Pokaż ]
Kategoria: » » » [Zgłoś błąd]
Dodane 03-10-2017
Podziękowali:
0 użytkowników 
Podziękuj!
Pokaż / Ukryj pliki:
Nazwa pliku Rozmiar
Robinson.Crusoe.3D.2016.PL.HOU.BDRip.1080p.Sonda.mkv 3.99 GB
Wicej Polskich Torrentów.desktop 0.13 KB
2 plików
Brak komentarzy...
[PDF] 12 Rules for Life - An Antidote to Chaos by Jordan B. Peterson {EB00K} | Watch now! | Goli Soda 2 (2018) 675MB 720P HDRip Dual Audio [Hindi-Telugu] Uncut – HEVC