Enable / Włącz Javascript
 Widok 
 Kategorie 
 Nitro Torrent w sieci 
 Top 10 użytkowników 
 Son of Batman *2014* [BRRip] [XviD] [MP3-RARBG] [ENG]

Son of Batman *2014* [BRRip] [XviD] [MP3-RARBG] [ENG]
Kategoria: » » »
Dodane: 03/10/2017
Rozmiar: 621.84 MB
Uploader: iridescence.info❱ Wędrowiec
seed(ów): 0
leecher(ów): 0
Pobrane: 4
Komentarzy: 0
Pobierz Torrent Pobierz Torrent
Pobierz [Magnet] Pobierz [Magnet]

Obserwuj
Raportuj
[Oryginalny obrazek]

Tytuł: Son of Batman
Ocena: BRAK
Produkcja: USA
Gatunek: Animacja, Akcja
Czas trwania: 75 min.
Premiera: 06.05.2014 - Świat
Reżyseria: Ethan Spaulding
Scenariusz: Bob Kane, Grant Morrison


       L I N K


[Oryginalny obrazek]

Film jest ekranizacją komiksu Granta Morrisona z 2006 roku. Batman dowiaduje się, że ma syna. Okazuje się, że jabłko pada niedaleko od jabłoni i chłopiec przepełniony jest wściekłością i żądzą zemsty. Czy Batman będzie w stanie naprowadzić Damiana na właściwą drogę?  

[Oryginalny obrazek]

... Jason O'Mara as Bruce Wayne / Batman (voice)
... Stuart Allan as Damian Wayne (voice)
... Thomas Gibson as Slade Wilson / Deathstroke (voice)
... Morena Baccarin as Talia al Ghul (voice)
... Giancarlo Esposito as Ra's al Ghul (voice)
... David McCallum as Alfred Pennyworth (voice)
... Xander Berkeley as Kirk Langstrom (voice)
... Sean Maher as Nightwing (voice)
... Fred Tatasciore as Killer Croc (voice)
... Bruce Thomas as Comissioner James Gordon (voice)  


[Oryginalny obrazek]

Info:
Format                                   : AVI
Format/Info                              : Audio Video Interleave
File size                                : 600 MiB
Duration                                 : 1h 14mn
Overall bit rate                         : 1 131 Kbps
Movie name                               : RARBG.COM - Son.of.Batman.2014.BRRip.XviD.MP3-RARBG
Writing library                          : VirtualDub build 35491/release
Comment                                  : RARBG.COM - Son.of.Batman.2014.BRRip.XviD.MP3-RARBG

Video
ID                                       : 0
Format                                   : MPEG-4 Visual
Format profile                           : Simple@L5
Format settings, BVOP                    : No
Format settings, QPel                    : No
Format settings, GMC                     : No warppoints
Format settings, Matrix                  : Default (H.263)
Codec ID                                 : XVID
Codec ID/Hint                            : XviD
Duration                                 : 1h 14mn
Bit rate                                 : 863 Kbps
Width                                    : 720 pixels
Height                                   : 400 pixels
Display aspect ratio                     : 16:9
Frame rate                               : 23.976 fps
Color space                              : YUV
Chroma subsampling                       : 4:2:0
Bit depth                                : 8 bits
Scan type                                : Progressive
Compression mode                         : Lossy
Bits/(Pixel*Frame)                       : 0.125
Stream size                              : 458 MiB (76%)
Writing library                          : Lavc55.55.104

Audio
ID                                       : 1
Format                                   : MPEG Audio
Format version                           : Version 1
Format profile                           : Layer 3
Mode                                     : Joint stereo
Mode extension                           : MS Stereo
Codec ID                                 : 55
Codec ID/Hint                            : MP3
Duration                                 : 1h 14mn
Bit rate mode                            : Constant
Bit rate                                 : 256 Kbps
Channel(s)                               : 2 channels
Sampling rate                            : 48.0 KHz
Compression mode                         : Lossy
Stream size                              : 136 MiB (23%)
Alignment                                : Aligned on interleaves
Interleave, duration                     : 24 ms (0.58 video frame)
Interleave, preload duration             : 504 ms
Writing library                          : LAME3.99.5


Torrent downloaded from http://rarbg.com


Dostępne napisy
Brak napisów
Szczegóły torrenta
Tracker http://tracker.trackerfix.com:80/announce
Multitracker [ Pokaż ]
Kategoria: » » » [Zgłoś błąd]
Dodane 03-10-2017
Podziękowali:
0 użytkowników 
Podziękuj!
Pokaż / Ukryj pliki:
Nazwa pliku Rozmiar
Son.of.Batman.2014.BRRip.XviD.MP3-RARBG.avi 600.12 MB
Subs/Subs.sub 20.44 MB
RARBG.avi 1.14 MB
Subs/Subs.idx 143.70 KB
Son.of.Batman.2014.BRRip.XviD.MP3-RARBG.nfo 3.11 KB
RARBG.com.txt 0.03 KB
6 plików
Brak komentarzy...
TV-Series | HD 720 Suspiria | Media DownloaderEasily download files