Enable / Włącz Javascript
 Widok 
 Kategorie 
 Nitro Torrent w sieci 
 Top 10 użytkowników 
 Świat według T.S. Spiveta 3D - The Young and Prodigious T.S. Spivet *2013* [mini-HD.1080p.3D.Half.Over-Under.AC3.BluRay.x264-SONDA] [Lektor PL] [AT-TEAM]

Świat według T.S. Spiveta 3D - The Young and Prodigious T.S. Spivet *2013* [mini-HD.1080p.3D.Half.Over-Under.AC3.BluRay.x264-SONDA] [Lektor PL] [AT-TEAM]
Kategoria: » » »
Dodane: 03/10/2017
Rozmiar: 3.94 GB
Uploader: iridescence.info❱ Wędrowiec
seed(ów): 0
leecher(ów): 0
Pobrane: 10
Komentarzy: 0
Pobierz Torrent Pobierz Torrent
Pobierz [Magnet] Pobierz [Magnet]

Obserwuj
Raportuj


Film w wersji 3D Over-Under.
Do odtworzenia filmu WYMAGANY odpowiedni sprzęt (TV 3D)
===========================================

Kopia mini-HD 1080p = 3,93 GB

Produkcja: Francja, Kanada
Gatunek: Dramat, Familijny, Przygodowy
Premiera: 28 września 2013 (świat)
Reżyseria: Jean-Pierre Jeunet
Scenariusz: Jean-Pierre Jeunet, Guillaume Laurant


http://www.imdb.com/title/tt1981107/
http://www.filmweb.pl/film?id=656007

Obsada:

Kyle Catlett ... T. S. Spivet
Helena Bonham Carter ... Dr Clair
Kathy Bates ... Sekretarka Smithsonian
Robert Maillet ... Wielkolud, włóczęga
Callum Keith Rennie ... Ojciec
Julian Richings ... Ricky
Dominique Pinon ... Two Clouds
Niamh Wilson ... Gracie

Storyline:

T.S. Spivet lives on a ranch in Montana with his mother who is obsessed with the morphology of beetles, his father (a cowboy born a hundred years too late) and his 14 year-old sister who dreams of becoming Miss America. T.S. is a 10 year-old prodigy with a passion for cartography and scientific inventions. One day, he receives an unexpected call from the Smithsonian museum telling him that he is the winner of the very prestigious Baird prize for his discovery of the perpetual motion machine and that he is invited to a reception in his honor where he is expected to give a speech. Without telling anyone, he sets out on a freight train across the U.S.A. to reach Washington DC. There is also Layton, twin brother of T.S., who died in an accident involving a firearm in the family's barn, which no one ever speaks of. T.S. was with him, measuring the scale of the gunshots for an experiment, and he doesn't understand what happened.

Opis:

T.S. Spivet (Kyle Catlett) mieszka na ranczu w Montanie wraz z matką (Helena Bonham Carter), zafascynowaną morfologią chrząszczy, ojcem - kowbojem (Callum Keith Rennie) i 14-letnią siostrą Gracie (Niamh Wilson), która marzy o zostaniu Miss Ameryki. T.S. jest 10-letnim geniuszem, którego pasją jest kartografia i wynalazki. Pewnego dnia otrzymuje niespodziewany telefon z muzeum Smithsonian z informacją o tym, że został laureatem prestiżowej nagrody Baird za wynalezienie perpetuum mobile. Z tej okazji planowana jest uroczystość na jego cześć, na której on sam ma wygłosić mowę. T.S. wsiada więc potajemnie do pociągu towarowego, by dotrzeć do Waszyngtonu...

Screenshot:







General
Format                                   : Matroska
Format version                           : Version 2
File size                                : 3.94 GiB
Duration                                 : 1h 45mn
Overall bit rate                         : 5 369 Kbps
Movie name                               : The.Young.and.Prodigious.T.S.Spivet.3D.Bluray3D Rip by Sonda [AT-Team]
Encoded date                             : UTC 2015-08-20 14:21:31
Writing application                      : mkvmerge v5.7.0 ('The Whirlwind') built on Jul  8 2012 20:08:51
Writing library                          : libebml v1.2.3 + libmatroska v1.3.0

Video
ID                                       : 1
Format                                   : AVC
Format/Info                              : Advanced Video Codec
Format profile                           : High@L4.1
Format settings, CABAC                   : Yes
Format settings, ReFrames                : 4 frames
Codec ID                                 : V_MPEG4/ISO/AVC
Duration                                 : 1h 45mn
Bit rate                                 : 5 000 Kbps
Width                                    : 1 920 pixels
Height                                   : 1 080 pixels
Display aspect ratio                     : 2.40:1
Frame rate mode                          : Constant
Frame rate                               : 23.976 fps
Color space                              : YUV
Chroma subsampling                       : 4:2:0
Bit depth                                : 8 bits
Scan type                                : Progressive
Bits/(Pixel*Frame)                       : 0.101
Stream size                              : 3.53 GiB (90%)
Title                                    : Rip by Sonda
Writing library                          : x264 core 148 r2579 73ae2d1
Encoding settings                        : cabac=1 / ref=4 / deblock=1:0:0 / analyse=0x3:0x133 / rc=abr
Default                                  : Yes
Forced                                   : No

Audio
ID                                       : 2
Format                                   : AC-3
Format/Info                              : Audio Coding 3
Mode extension                           : CM (complete main)
Format settings, Endianness              : Big
Codec ID                                 : A_AC3
Duration                                 : 1h 45mn
Bit rate mode                            : Constant
Bit rate                                 : 448 Kbps
Channel(s)                               : 6 channels
Channel positions                        : Front: L C R, Side: L R, LFE
Sampling rate                            : 48.0 KHz
Bit depth                                : 16 bits
Compression mode                         : Lossy
Stream size                              : 337 MiB (8%)
Title                                    : AC3 5.1 Lektor PL
Language                                 : Polish
Default                                  : Yes
Forced                                   : No

Menu
00:00:00.000                             : en:00:00:00.000
00:05:48.932                             : en:00:05:48.932
00:14:55.728                             : en:00:14:55.728
00:20:51.500                             : en:00:20:51.500
00:29:59.673                             : en:00:29:59.673
00:38:31.726                             : en:00:38:31.726
00:46:13.813                             : en:00:46:13.813
00:55:29.034                             : en:00:55:29.034
01:06:40.997                             : en:01:06:40.997
01:13:58.100                             : en:01:13:58.100
01:26:25.472                             : en:01:26:25.472
01:36:23.486                             : en:01:36:23.486

Source:
V-BD3D
Lektor PL - DVD




.:: Sonda ::.


Dostępne napisy
Brak napisów
Szczegóły torrenta
Tracker http://tracker.aletorrenty.pl:2710/announce
Multitracker [ Pokaż ]
Kategoria: » » » [Zgłoś błąd]
Dodane 03-10-2017
Podziękowali:
0 użytkowników 
Podziękuj!
Pokaż / Ukryj pliki:
Nazwa pliku Rozmiar
AT-TEAM/Upload by Sonda [AT-TEAM].jpg 45.62 KB
AT-TEAM/Read iNFO.txt 2.07 KB
AT-TEAM/Ale Torrenty Team enjoy !.url 0.11 KB
info/Torrent downloaded from sonda torrents at Free-Torrents.pl.txt 0.52 KB
info/Torrent downloaded from sonda torrents at aletorrenty.pl.txt 0.38 KB
info/Torrent downloaded from Sonda torrents at BTS.to.txt 0.11 KB
info/Torrent downloaded from Sonda torrents at AhaShare.com.txt 0.06 KB
info/Torrent downloaded from sonda000 torrents at demonoid.ph.txt 0.02 KB
SPIVET_3D.2013.PL.H-OU.miniHD.1080p(Sonda).mkv 3.94 GB
VGrzP15.jpg 165.04 KB
10 plików
Brak komentarzy...
Körperpflege | Keishichou Tokuhanka 007 | Mamoru Miyano