Enable / Włącz Javascript
 Widok 
 Kategorie 
 Nitro Torrent w sieci 
 Top 10 użytkowników 
 Vikings S05E11-12 [1080p.AMZN.WEB-DL.H.264.AC3] [Lektor PL] [ENG+Napisy PL]

Vikings S05E11-12 [1080p.AMZN.WEB-DL.H.264.AC3] [Lektor PL] [ENG+Napisy PL]
Kategoria: » » » »
Dodane: 13/12/2018
Rozmiar: 5.25 GB
Uploader: Lukarusi (1)
seed(ów): 17
leecher(ów): 4
Pobrane: 74
Komentarzy: 0
Pobierz Torrent Pobierz Torrent
Pobierz [Magnet] Pobierz [Magnet]

Obserwuj
Raportuj
Info

produkcja: Irlandia, Kanada
gatunek: Dramat, Akcja, Przygodowy
reżyseria: David Wellington, Ciaran Donnelly, Steve Saint Leger,
scenariusz: Michael Hirst
zdjęcia: Peter Robertson, Suzie Lavelle
muzyka: Trevor Morris
czas trwania: ok. 45 min.

Opis

"Vikings" opowiada historię Ragnara Lothbroka oraz jego braci i rodziny. Serial ukazuje jak Ragnar staje się królem wikińskich plemion. Poza byciem nieustraszonym wojownikiem, Ragnar jest ucieleśnieniem nordyckiej tradycji i oddania się bogom. Legenda mówi, że jest on bezpośrednim potomkiem Odyna, boga wojny i wojowników.

Obsada

Travis Fimmel - Ragnar Lothbrok
Katheryn Winnick - Lagertha Lothbrok
Gustaf Skarsg?rd - Floki
Alexander Ludwig - Bjorn
Alex H?gh Andersen - Ivar
Marco Ils? - Hvitserk
David Lindström - Sigurd
Jordan Patrick Smith - Ubbe
Josefin Asplund - Astrid
Maude Hirst - Helga
Ida Nielsen - Margrethe

Dane Techniczne

Format : Matroska
Format version : Version 4 / Version 2
File size : 2.61 GiB
Duration : 44 min 49 s
Overall bit rate mode : Variable
Overall bit rate : 8 344 kb/s
Encoded date : UTC 2018-12-08 17:28:49

Video
ID : 1
Format : AVC
Format/Info : Advanced Video Codec
Format profile : High@L4
Format settings : CABAC / 4 Ref Frames
Format settings, CABAC : Yes
Format settings, ReFrames : 4 frames
Codec ID : V_MPEG4/ISO/AVC
Duration : 44 min 49 s
Bit rate mode : Variable
Bit rate : 7 573 kb/s
Maximum bit rate : 15.0 Mb/s
Width : 1 920 pixels
Height : 1 080 pixels
Display aspect ratio : 16:9
Frame rate mode : Constant
Frame rate : 23.976 (24000/1001) FPS
Color space : YUV
Chroma subsampling : 4:2:0
Bit depth : 8 bits
Scan type : Progressive
Bits/(Pixel*Frame) : 0.152
Stream size : 2.37 GiB (91%)
Default : Yes
Forced : Yes
Color range : Limited
Color primaries : BT.709
Transfer characteristics : BT.709
Matrix coefficients : BT.709

Audio 1
ID : 2
Format : AC-3
Format/Info : Audio Coding 3
Codec ID : A_AC3
Duration : 44 min 49 s
Bit rate mode : Constant
Bit rate : 384 kb/s
Channel(s) : 2 channels
Channel positions : Front: L R
Sampling rate : 48.0 kHz
Frame rate : 31.250 FPS (1536 SPF)
Bit depth : 16 bits
Compression mode : Lossy
Stream size : 123 MiB (5%)
Language : Polish
Service kind : Complete Main
Default : Yes
Forced : Yes

Audio 2
ID : 3
Format : AC-3
Format/Info : Audio Coding 3
Codec ID : A_AC3
Duration : 44 min 49 s
Bit rate mode : Constant
Bit rate : 384 kb/s
Channel(s) : 6 channels
Channel positions : Front: L C R, Side: L R, LFE
Sampling rate : 48.0 kHz
Frame rate : 31.250 FPS (1536 SPF)
Bit depth : 16 bits
Compression mode : Lossy
Stream size : 123 MiB (5%)
Language : English
Service kind : Complete Main
Default : No
Forced : No

Text
ID : 4
Format : UTF-8
Codec ID : S_TEXT/UTF8
Codec ID/Info : UTF-8 Plain Text
Duration : 42 min 8 s
Bit rate : 49 b/s
Count of elements : 396
Stream size : 15.1 KiB (0%)
Language : Polish
Default : No
Forced : No
Dostępne napisy
Brak napisów
Szczegóły torrenta
Tracker http://tracker.city9x.com:2710/announce
Multitracker [ Pokaż ]
Kategoria: » » » » [Zgłoś błąd]
Dodane 13-12-2018
Podziękowali:
0 użytkowników 
Podziękuj!
Pokaż / Ukryj pliki:
Nazwa pliku Rozmiar
Vikings S05E11 - The Revelation [1080p.AMZN.WEB-DL.H.264.AC3] [Lektor PL] [ENG+Napisy PL].mkv 2.61 GB
Vikings S05E12 - Murder Most Foul [1080p.AMZN.WEB-DL.H.264.AC3] [Lektor PL] [ENG+Napisy PL].mkv 2.64 GB
2 plików
Brak komentarzy...
malayalam | Baixar toque para celular | Calde da Donna Maglia Maniche Lunghe Felpa da Donna Maglioncino Maglia Maglia